<?xml version="1.0" standalone="no"?>
<!DOCTYPE svg PUBLIC "-//W3C//DTD SVG 1.1//EN" "http://www.w3.org/Graphics/SVG/1.1/DTD/svg11.dtd" >
<svg xmlns="http://www.w3.org/2000/svg">
<metadata>
Created by FontPrep 20130207 at Tue Sep 27 11:31:16 2016
 By Abdelqader, Layth
Copyright 2014 Type Supply LLC. All rights reserved.
</metadata>
<defs>
<font id="0f7628e26120f0f09ce1f8505eddb4e1" horiz-adv-x='1024' >
  <font-face 
    font-family="DSGSans-Black"
    font-weight="700"
    font-stretch="semi-condensed"
    units-per-em="2048"
    panose-1="2 11 9 6 3 2 2 5 2 4"
    ascent="1761"
    descent="-287"
    x-height="1155"
    cap-height="1536"
    bbox="-336 -365 1880 1894"
    underline-thickness="172"
    underline-position="-86"
    unicode-range="U+0020-FB02"
  />
<missing-glyph horiz-adv-x="1024" 
d="M205 -184h614v1618h-614v-1618zM102 -287v1823h820v-1823h-820z" />
    <glyph glyph-name=".notdef" horiz-adv-x="1024" 
d="M205 -184h614v1618h-614v-1618zM102 -287v1823h820v-1823h-820z" />
    <glyph glyph-name=".null" horiz-adv-x="0" 
 />
    <glyph glyph-name="nonmarkingreturn" horiz-adv-x="681" 
 />
    <glyph glyph-name="space" unicode=" " horiz-adv-x="319" 
 />
    <glyph glyph-name="exclam" unicode="!" horiz-adv-x="487" 
d="M408 0h-328v283h328v-283zM80 1536h328v-551l-50 -598h-229l-49 598v551z" />
    <glyph glyph-name="quotedbl" unicode="&#x22;" horiz-adv-x="622" 
d="M266 1536v-256l-41 -258h-131l-41 258v256h213zM569 1536v-256l-41 -258h-131l-41 258v256h213z" />
    <glyph glyph-name="numbersign" unicode="#" horiz-adv-x="1058" 
d="M506 0l51 391h-158l-51 -391h-221l51 391h-149l28 221h152l41 312h-150l29 221h152l51 391h221l-51 -391h157l52 391h221l-51 -391h149l-29 -221h-151l-41 -312h149l-28 -221h-152l-51 -391h-221zM588 612l41 312h-158l-41 -312h158z" />
    <glyph glyph-name="dollar" unicode="$" horiz-adv-x="972" 
d="M610 0v-184h-237v184h-135l-187 186v334h336v-258h209v297l-377 125l-168 180v486l187 186h135v184h237v-184h125l187 -186v-324h-336v248h-207v-287l377 -123l168 -180v-498l-187 -186h-127z" />
    <glyph glyph-name="percent" unicode="%" horiz-adv-x="1308" 
d="M922 172h147v426h-147v-426zM725 137v496l137 137h266l138 -137v-496l-138 -137h-266zM238 938h147v426h-147v-426zM1087 1536l-712 -1536h-156l713 1536h155zM582 1399v-496l-138 -137h-266l-137 137v496l137 137h266z" />
    <glyph glyph-name="ampersand" unicode="&#x26;" horiz-adv-x="1214" 
d="M967 1020h-312v254h-198v-213l397 -543v354h279v-485l-105 -104l117 -162v-121h-268l-60 82l-82 -82h-489l-187 186v437l209 208l-123 166v353l187 186h448l187 -186v-330zM387 262h297l-297 406v-406z" />
    <glyph glyph-name="quotesingle" unicode="'" horiz-adv-x="319" 
d="M266 1536v-256l-41 -258h-131l-41 258v256h213z" />
    <glyph glyph-name="parenleft" unicode="(" horiz-adv-x="585" 
d="M549 1690v-287h-154v-1270h154v-287h-287l-186 187v1470l186 187h287z" />
    <glyph glyph-name="parenright" unicode=")" horiz-adv-x="585" 
d="M37 -154v287h153v1270h-153v287h287l186 -187v-1470l-186 -187h-287z" />
    <glyph glyph-name="asterisk" unicode="*" horiz-adv-x="677" 
d="M436 948l-96 201l-98 -201l-154 111l164 153l-221 31l57 180l197 -106l-39 219h188l-39 -219l195 106l57 -180l-221 -31l164 -153z" />
    <glyph glyph-name="plus" unicode="+" horiz-adv-x="667" 
d="M240 473v244h-215v188h215v244h188v-244h215v-188h-215v-244h-188z" />
    <glyph glyph-name="comma" unicode="," horiz-adv-x="360" 
d="M307 283v-283l-133 -195h-121l82 195h-82v283h254z" />
    <glyph glyph-name="hyphen" unicode="-" horiz-adv-x="552" 
d="M25 954h503v-286h-503v286z" />
    <glyph glyph-name="period" unicode="." horiz-adv-x="360" 
d="M307 283v-283h-254v283h254z" />
    <glyph glyph-name="slash" unicode="/" horiz-adv-x="667" 
d="M657 1679l-393 -1822h-254l393 1822h254z" />
    <glyph glyph-name="zero" unicode="0" horiz-adv-x="987" 
d="M600 264v1010h-213v-1010h213zM246 0l-187 186v1164l187 186h495l187 -186v-1164l-187 -186h-495z" />
    <glyph glyph-name="one" unicode="1" horiz-adv-x="544" 
d="M27 1257v209l180 70h268v-1536h-328v1257h-120z" />
    <glyph glyph-name="two" unicode="2" horiz-adv-x="952" 
d="M901 0h-848v449l113 213l416 313v291h-201v-230h-328v314l187 186h475l186 -186v-416l-115 -213l-405 -307v-135h520v-279z" />
    <glyph glyph-name="three" unicode="3" horiz-adv-x="972" 
d="M49 528h328v-266h211v393h-256v271h256v348h-211v-238h-328v314l187 186h493l186 -186v-416l-143 -143l143 -144v-461l-186 -186h-493l-187 186v342z" />
    <glyph glyph-name="four" unicode="4" horiz-adv-x="989" 
d="M549 571v615h-8l-232 -615h240zM969 293h-92v-293h-328v293h-535v244l379 999h484v-965h92v-278z" />
    <glyph glyph-name="five" unicode="5" horiz-adv-x="978" 
d="M63 528h328v-266h207v496h-207v-76h-328v854h834v-279h-506v-366l90 129h279l166 -166v-668l-187 -186h-489l-187 186v342z" />
    <glyph glyph-name="six" unicode="6" horiz-adv-x="983" 
d="M387 262h211v436h-211v-436zM926 1036h-328v238h-211v-451l92 129h281l166 -166v-600l-187 -186h-493l-187 186v1164l187 186h493l187 -186v-314z" />
    <glyph glyph-name="seven" unicode="7" horiz-adv-x="849" 
d="M25 1257v279h800v-244l-338 -1292h-333l344 1257h-473z" />
    <glyph glyph-name="eight" unicode="8" horiz-adv-x="993" 
d="M385 262h221v402h-221v-402zM385 918h221v356h-221v-356zM244 0l-187 186v461l144 144l-144 143v416l187 186h504l186 -186v-416l-143 -143l143 -144v-461l-186 -186h-504z" />
    <glyph glyph-name="nine" unicode="9" horiz-adv-x="983" 
d="M57 528h328v-266h211v481l-92 -129h-281l-166 166v570l187 186h493l187 -186v-1164l-187 -186h-493l-187 186v342zM385 868h211v406h-211v-406z" />
    <glyph glyph-name="colon" unicode=":" horiz-adv-x="364" 
d="M309 283v-283h-254v283h254zM309 993v-282h-254v282h254z" />
    <glyph glyph-name="semicolon" unicode=";" horiz-adv-x="364" 
d="M309 283v-283l-133 -195h-121l82 195h-82v283h254zM309 993v-282h-254v282h254z" />
    <glyph glyph-name="less" unicode="&#x3c;" horiz-adv-x="753" 
d="M709 426l-676 293v184l676 293v-219l-441 -166l441 -166v-219z" />
    <glyph glyph-name="equal" unicode="=" horiz-adv-x="708" 
d="M45 762h619v-189h-619v189zM45 1049h619v-189h-619v189z" />
    <glyph glyph-name="greater" unicode="&#x3e;" horiz-adv-x="753" 
d="M45 426v219l440 166l-440 166v219l676 -293v-184z" />
    <glyph glyph-name="question" unicode="?" horiz-adv-x="968" 
d="M602 0h-328v283h328v-283zM602 387h-328v307l115 180l197 113v279h-203v-248h-328v332l187 186h485l186 -186v-426l-112 -181l-199 -112v-244z" />
    <glyph glyph-name="at" unicode="@" horiz-adv-x="1806" 
d="M776 303h168l74 615h-168zM1319 -287h-918l-358 359l135 1093l342 342h1028l217 -217l-127 -1054l-170 -170h-495l-29 139l-98 -139h-232l-165 165l94 758l166 166h260l73 -133l31 133h295l-104 -852h151l121 991h-899l-240 -239l-108 -891l237 -238h820z" />
    <glyph glyph-name="A" unicode="A" horiz-adv-x="1036" 
d="M672 0l-47 326h-246l-47 -326h-312l259 1536h479l258 -1536h-344zM498 1133l-76 -512h160l-76 512h-8z" />
    <glyph glyph-name="B" unicode="B" horiz-adv-x="1005" 
d="M612 270v385h-206v-385h206zM612 909v357h-206v-357h206zM70 0v1536h688l190 -190v-420l-143 -144l143 -143v-449l-190 -190h-688z" />
    <glyph glyph-name="C" unicode="C" horiz-adv-x="980" 
d="M932 987h-336v279h-201v-996h201v308h336v-388l-191 -190h-491l-191 190v1156l191 190h491l191 -190v-359z" />
    <glyph glyph-name="D" unicode="D" horiz-adv-x="1007" 
d="M612 270v996h-206v-996h206zM70 0v1536h688l190 -190v-1156l-190 -190h-688z" />
    <glyph glyph-name="E" unicode="E" horiz-adv-x="860" 
d="M70 0v1536h733v-287h-397v-327h366v-287h-366v-348h397v-287h-733z" />
    <glyph glyph-name="F" unicode="F" horiz-adv-x="823" 
d="M70 0v1536h710v-287h-374v-344h354v-287h-354v-618h-336z" />
    <glyph glyph-name="G" unicode="G" horiz-adv-x="1001" 
d="M942 987h-336v279h-211v-996h228v293h-134v271h453v-644l-190 -190h-502l-191 190v1156l191 190h502l190 -190v-359z" />
    <glyph glyph-name="H" unicode="H" horiz-adv-x="1011" 
d="M70 0v1536h336v-606h200v606h336v-1536h-336v627h-200v-627h-336z" />
    <glyph glyph-name="I" unicode="I" horiz-adv-x="479" 
d="M72 1536h336v-1536h-336v1536z" />
    <glyph glyph-name="J" unicode="J" horiz-adv-x="671" 
d="M39 0v287h233v1249h336v-1341l-194 -195h-375z" />
    <glyph glyph-name="K" unicode="K" horiz-adv-x="987" 
d="M406 0h-336v1536h336v-623h10l202 623h343l-250 -727l260 -809h-355l-200 643h-10v-643z" />
    <glyph glyph-name="L" unicode="L" horiz-adv-x="815" 
d="M70 0v1536h336v-1249h366v-287h-702z" />
    <glyph glyph-name="M" unicode="M" horiz-adv-x="1390" 
d="M350 1030v-1030h-287v1536h492l129 -860h8l129 860h506v-1536h-336v1030h-8l-166 -1030h-293l-166 1030h-8z" />
    <glyph glyph-name="N" unicode="N" horiz-adv-x="1028" 
d="M70 0v1536h336l258 -813h8v813h286v-1536h-319l-274 813h-9v-813h-286z" />
    <glyph glyph-name="O" unicode="O" horiz-adv-x="1003" 
d="M608 270v996h-213v-996h213zM250 0l-191 190v1156l191 190h504l190 -190v-1156l-190 -190h-504z" />
    <glyph glyph-name="P" unicode="P" horiz-adv-x="989" 
d="M608 786v480h-202v-480h202zM406 514v-514h-336v1536h684l190 -190v-641l-190 -191h-348z" />
    <glyph glyph-name="Q" unicode="Q" horiz-adv-x="1003" 
d="M608 270v996h-213v-996h213zM944 287v-287h-694l-191 190v1156l191 190h504l190 -190v-883l-176 -176h176z" />
    <glyph glyph-name="R" unicode="R" horiz-adv-x="1005" 
d="M406 0h-336v1536h686l190 -190v-467l-143 -144l143 -143v-592h-336v608h-204v-608zM610 862v404h-204v-404h204z" />
    <glyph glyph-name="S" unicode="S" horiz-adv-x="972" 
d="M51 520h336v-250h209v289l-377 125l-168 180v482l191 190h489l191 -190v-320h-336v240h-207v-279l377 -123l168 -180v-494l-191 -190h-491l-191 190v330z" />
    <glyph glyph-name="T" unicode="T" horiz-adv-x="882" 
d="M274 0v1249h-247v287h829v-287h-246v-1249h-336z" />
    <glyph glyph-name="U" unicode="U" horiz-adv-x="980" 
d="M63 1536h336v-1266h199v1266h320v-1346l-191 -190h-473l-191 190v1346z" />
    <glyph glyph-name="V" unicode="V" horiz-adv-x="950" 
d="M625 1536h311l-223 -1536h-475l-224 1536h344l129 -1081h9z" />
    <glyph glyph-name="W" unicode="W" horiz-adv-x="1331" 
d="M801 0l-123 874h-8l-123 -874h-352l-177 1536h328l72 -854h8l131 854h254l131 -854h6l74 854h291l-176 -1536h-336z" />
    <glyph glyph-name="X" unicode="X" horiz-adv-x="974" 
d="M352 0h-336l185 803l-174 733h346l112 -567h7l129 567h327l-174 -733l184 -803h-346l-118 606h-7z" />
    <glyph glyph-name="Y" unicode="Y" horiz-adv-x="942" 
d="M303 0v406l-291 1130h342l125 -606h6l125 606h320l-291 -1130v-406h-336z" />
    <glyph glyph-name="Z" unicode="Z" horiz-adv-x="888" 
d="M840 1536v-254l-408 -995h410v-287h-795v254l408 995h-406v287h791z" />
    <glyph glyph-name="bracketleft" unicode="[" horiz-adv-x="581" 
d="M76 -154v1844h469v-287h-150v-1270h150v-287h-469z" />
    <glyph glyph-name="backslash" unicode="\" horiz-adv-x="667" 
d="M10 1679h254l393 -1822h-254z" />
    <glyph glyph-name="bracketright" unicode="]" horiz-adv-x="581" 
d="M37 1690h469v-1844h-469v287h149v1270h-149v287z" />
    <glyph glyph-name="asciicircum" unicode="^" horiz-adv-x="718" 
d="M494 809l-134 483l-135 -483h-205l242 727h195l241 -727h-204z" />
    <glyph glyph-name="underscore" unicode="_" horiz-adv-x="622" 
d="M-20 -86h663v-172h-663v172z" />
    <glyph glyph-name="grave" unicode="`" horiz-adv-x="759" 
d="M367 1212l-162 287h188l162 -287h-188z" />
    <glyph glyph-name="a" unicode="a" horiz-adv-x="925" 
d="M547 918h-164v-156h-311v229l164 164h464l166 -166v-989h-291l-10 127l-90 -127h-278l-150 150v344l152 153l348 47v224zM367 238h180v272l-180 -25v-247z" />
    <glyph glyph-name="b" unicode="b" horiz-adv-x="950" 
d="M66 0v1536h319v-506l90 125h256l166 -166v-823l-166 -166h-272l-92 129l-11 -129h-290zM385 238h193v680h-193v-680z" />
    <glyph glyph-name="c" unicode="c" horiz-adv-x="915" 
d="M868 737h-319v181h-176v-680h176v198h319v-270l-166 -166h-483l-166 166v823l166 166h483l166 -166v-252z" />
    <glyph glyph-name="d" unicode="d" horiz-adv-x="950" 
d="M565 1536h320v-1536h-291l-10 129l-92 -129h-273l-166 166v823l166 166h256l90 -125v506zM373 238h192v680h-192v-680z" />
    <glyph glyph-name="e" unicode="e" horiz-adv-x="931" 
d="M373 918v-207h186v207h-186zM879 514h-506v-276h186v161h320v-233l-166 -166h-494l-166 166v823l166 166h494l166 -166v-475z" />
    <glyph glyph-name="f" unicode="f" horiz-adv-x="624" 
d="M115 0v918h-92v237h92v217l164 164h329v-238h-174v-143h174v-237h-174v-918h-319z" />
    <glyph glyph-name="g" unicode="g" horiz-adv-x="950" 
d="M53 33h320v-90h192v288l-90 -125h-256l-166 166v717l166 166h273l92 -129l10 129h291v-1276l-166 -166h-504l-162 162v158zM565 344v574h-192v-574h192z" />
    <glyph glyph-name="h" unicode="h" 
d="M385 918v-918h-319v1536h319v-506l90 125h244l166 -166v-989h-320v918h-180z" />
    <glyph glyph-name="i" unicode="i" horiz-adv-x="454" 
d="M387 1155v-1155h-319v1155h319zM387 1520v-244h-319v244h319z" />
    <glyph glyph-name="j" unicode="j" horiz-adv-x="454" 
d="M-53 -287v213h121v1229h319v-1278l-164 -164h-276zM387 1520v-244h-319v244h319z" />
    <glyph glyph-name="k" unicode="k" horiz-adv-x="907" 
d="M385 485v-485h-319v1536h319v-829h10l156 448h330l-213 -541l223 -614h-330l-166 485h-10z" />
    <glyph glyph-name="l" unicode="l" horiz-adv-x="454" 
d="M387 1536v-1536h-319v1536h319z" />
    <glyph glyph-name="m" unicode="m" horiz-adv-x="1402" 
d="M385 918v-918h-319v1155h290l11 -129l92 129h262l90 -113l84 113h272l176 -176v-979h-319v918h-160v-918h-319v918h-160z" />
    <glyph glyph-name="n" unicode="n" 
d="M385 918v-918h-319v1155h290l11 -133l96 133h256l166 -166v-989h-320v918h-180z" />
    <glyph glyph-name="o" unicode="o" horiz-adv-x="933" 
d="M561 238v680h-188v-680h188zM53 166v823l166 166h496l166 -166v-823l-166 -166h-496z" />
    <glyph glyph-name="p" unicode="p" horiz-adv-x="950" 
d="M385 -287h-319v1442h290l11 -129l92 129h272l166 -166v-823l-166 -166h-256l-90 125v-412zM385 238h193v680h-193v-680z" />
    <glyph glyph-name="q" unicode="q" horiz-adv-x="950" 
d="M373 238h192v680h-192v-680zM885 -287h-320v412l-90 -125h-256l-166 166v823l166 166h273l92 -129l10 129h291v-1442z" />
    <glyph glyph-name="r" unicode="r" horiz-adv-x="694" 
d="M385 0h-319v1155h290l11 -129l92 129h200v-303h-274v-852z" />
    <glyph glyph-name="s" unicode="s" horiz-adv-x="923" 
d="M49 379h320v-141h186v172l-371 100l-133 139v340l166 166h490l165 -166v-211h-319v140h-182v-168l370 -101l133 -139v-344l-165 -166h-494l-166 166v213z" />
    <glyph glyph-name="t" unicode="t" horiz-adv-x="700" 
d="M129 918h-109v237h109v281h320v-281h210v-237h-210v-680h210v-238h-360l-170 170v748z" />
    <glyph glyph-name="u" unicode="u" 
d="M59 1155h320v-917h180v917h320v-1155h-291l-10 133l-97 -133h-256l-166 166v989z" />
    <glyph glyph-name="v" unicode="v" horiz-adv-x="851" 
d="M442 408l103 747h295l-209 -1155h-410l-209 1155h320l102 -747h8z" />
    <glyph glyph-name="w" unicode="w" horiz-adv-x="1275" 
d="M743 0l-92 690h-8l-96 -690h-383l-146 1155h320l70 -692h6l102 692h303l103 -692h8l67 692h260l-145 -1155h-369z" />
    <glyph glyph-name="x" unicode="x" horiz-adv-x="958" 
d="M352 0h-319l174 594l-164 561h348l103 -428h6l102 428h313l-163 -561l174 -594h-348l-109 430h-8z" />
    <glyph glyph-name="y" unicode="y" horiz-adv-x="851" 
d="M524 -287h-319l63 273l-256 1169h320l102 -698h8l103 698h295z" />
    <glyph glyph-name="z" unicode="z" horiz-adv-x="794" 
d="M756 1155v-205l-353 -712h355v-238h-721v205l356 713h-354v237h717z" />
    <glyph glyph-name="braceleft" unicode="{" horiz-adv-x="638" 
d="M602 -154h-287l-186 187v635h-115v286h115v549l186 187h287v-287h-153v-479l-113 -113l113 -113v-565h153v-287z" />
    <glyph glyph-name="bar" unicode="|" horiz-adv-x="622" 
d="M184 1679h254v-1822h-254v1822z" />
    <glyph glyph-name="braceright" unicode="}" horiz-adv-x="638" 
d="M37 -154v287h153v565l115 113l-115 113v479h-153v287h287l186 -187v-549h115v-286h-115v-635l-186 -187h-287z" />
    <glyph glyph-name="asciitilde" unicode="~" horiz-adv-x="772" 
d="M205 1184h-164v246l106 106h185l180 -180h55v180h164v-246l-106 -106h-185l-180 180h-55v-180z" />
    <glyph glyph-name="uni00A0" unicode="&#xa0;" horiz-adv-x="319" 
 />
    <glyph glyph-name="exclamdown" unicode="&#xa1;" horiz-adv-x="487" 
d="M408 0h-328v551l49 598h229l50 -598v-551zM80 1536h328v-283h-328v283z" />
    <glyph glyph-name="cent" unicode="&#xa2;" horiz-adv-x="915" 
d="M580 -184h-238v184h-123l-166 166v823l166 166h123v184h238v-184h122l166 -166v-252h-319v181h-176v-680h176v198h319v-270l-166 -166h-122v-184z" />
    <glyph glyph-name="sterling" unicode="&#xa3;" horiz-adv-x="1011" 
d="M29 0v279h92v286h-92v279h92v506l186 186h469l187 -186v-324h-328v240h-195v-422h342v-279h-342v-286h523v-279h-934z" />
    <glyph glyph-name="yen" unicode="&#xa5;" horiz-adv-x="985" 
d="M303 0v135h-235v205h235v74h-235v204h184l-240 918h342l125 -614h6l125 614h320l-240 -918h184v-204h-235v-74h235v-205h-235v-135h-336z" />
    <glyph glyph-name="brokenbar" unicode="&#xa6;" horiz-adv-x="622" 
d="M184 614h254v-757h-254v757zM184 1679h254v-757h-254v757z" />
    <glyph glyph-name="section" unicode="&#xa7;" horiz-adv-x="970" 
d="M51 223h336v-239h205v278l-393 135l-148 148v153l869 -268v-526l-191 -191h-487l-191 191v319zM920 1026h-336v240h-205v-277l393 -135l148 -147v-154l-869 268v525l191 190h487l191 -190v-320z" />
    <glyph glyph-name="dieresis" unicode="&#xa8;" horiz-adv-x="849" 
d="M205 1450h180v-229h-180v229zM465 1450h180v-229h-180v229z" />
    <glyph glyph-name="copyright" unicode="&#xa9;" horiz-adv-x="1390" 
d="M1008 877h-222v155h-165v-528h165v174h222v-221l-150 -150h-326l-149 150v622l149 150h326l150 -150v-202zM240 1227v-918l145 -145h621l145 145v918l-145 145h-621zM315 0l-256 256v1024l256 256h760l256 -256v-1024l-256 -256h-760z" />
    <glyph glyph-name="ordfeminine" unicode="&#xaa;" horiz-adv-x="645" 
d="M385 1380h-127v-98h-199v152l103 102h325l103 -102v-639h-189l-4 79l-57 -79h-203l-92 92v225l94 96l246 31v141zM248 936h137v182l-137 -16v-166z" />
    <glyph glyph-name="guillemotleft" unicode="&#xab;" horiz-adv-x="862" 
d="M494 393h-232l-239 393v41l239 394h232l-250 -414zM817 393h-231l-240 393v41l240 394h231l-250 -414z" />
    <glyph glyph-name="registered" unicode="&#xae;" horiz-adv-x="890" 
d="M393 868h-123v484h262l89 -88v-136l-48 -45l48 -47v-168h-123v150h-105v-150zM498 1124v121h-105v-121h105zM727 895v430l-113 113h-338l-112 -113v-430l112 -113h338zM49 858v504l174 174h445l174 -174v-504l-174 -174h-445z" />
    <glyph glyph-name="macron" unicode="&#xaf;" horiz-adv-x="866" 
d="M205 1419h457v-164h-457v164z" />
    <glyph glyph-name="degree" unicode="&#xb0;" horiz-adv-x="542" 
d="M176 1151h191v254h-191v-254zM498 1403v-250l-133 -133h-187l-133 133v250l133 133h187z" />
    <glyph glyph-name="plusminus" unicode="&#xb1;" horiz-adv-x="706" 
d="M33 516h618v-188h-618v188zM248 584v243h-215v189h215v244h188v-244h215v-189h-215v-243h-188z" />
    <glyph glyph-name="acute" unicode="&#xb4;" horiz-adv-x="759" 
d="M367 1499h188l-162 -287h-188z" />
    <glyph glyph-name="paragraph" unicode="&#xb6;" horiz-adv-x="1050" 
d="M711 -287v1585h-107v-954h-368l-191 188v814l191 190h745v-1823h-270z" />
    <glyph glyph-name="periodcentered" unicode="&#xb7;" horiz-adv-x="364" 
d="M309 993v-282h-254v282h254z" />
    <glyph glyph-name="cedilla" unicode="&#xb8;" horiz-adv-x="765" 
d="M205 -287v90h225v58h-164v61l39 78h115l-25 -49h105l61 -62v-114l-61 -62h-295z" />
    <glyph glyph-name="ordmasculine" unicode="&#xba;" horiz-adv-x="647" 
d="M254 950h133v430h-133v-430zM592 1434v-537l-103 -102h-331l-103 102v537l103 102h331z" />
    <glyph glyph-name="guillemotright" unicode="&#xbb;" horiz-adv-x="862" 
d="M600 393h-231l249 414l-249 414h231l240 -394v-41zM276 393h-231l250 414l-250 414h231l240 -394v-41z" />
    <glyph glyph-name="questiondown" unicode="&#xbf;" horiz-adv-x="968" 
d="M367 1149h327v-307l-114 -180l-197 -113v-279h203v248h327v-332l-186 -186h-485l-187 186v426l113 181l199 112v244zM367 1536h327v-283h-327v283z" />
    <glyph glyph-name="Agrave" unicode="&#xc0;" horiz-adv-x="1036" 
d="M422 1593l-162 287h189l161 -287h-188zM672 0l-47 326h-246l-47 -326h-312l259 1536h479l258 -1536h-344zM498 1133l-76 -512h160l-76 512h-8z" />
    <glyph glyph-name="Aacute" unicode="&#xc1;" horiz-adv-x="1036" 
d="M586 1880h188l-162 -287h-188zM672 0l-47 326h-246l-47 -326h-312l259 1536h479l258 -1536h-344zM498 1133l-76 -512h160l-76 512h-8z" />
    <glyph glyph-name="Acircumflex" unicode="&#xc2;" horiz-adv-x="1036" 
d="M412 1862h213l184 -267h-184l-103 162h-8l-102 -162h-185zM672 0l-47 326h-246l-47 -326h-312l259 1536h479l258 -1536h-344zM498 1133l-76 -512h160l-76 512h-8z" />
    <glyph glyph-name="Atilde" unicode="&#xc3;" horiz-adv-x="1036" 
d="M383 1731v-125h-147v149l98 98h158l124 -124h35v124h148v-149l-99 -98h-157l-125 125h-35zM672 0l-47 326h-246l-47 -326h-312l259 1536h479l258 -1536h-344zM498 1133l-76 -512h160l-76 512h-8z" />
    <glyph glyph-name="Adieresis" unicode="&#xc4;" horiz-adv-x="1036" 
d="M297 1831h180v-229h-180v229zM557 1831h180v-229h-180v229zM672 0l-47 326h-246l-47 -326h-312l259 1536h479l258 -1536h-344zM498 1133l-76 -512h160l-76 512h-8z" />
    <glyph glyph-name="Aring" unicode="&#xc5;" horiz-adv-x="1036" 
d="M449 1686h137v118h-137v-118zM676 1815v-140l-80 -80h-158l-80 80v140l80 79h158zM672 0l-47 326h-246l-47 -326h-312l259 1536h479l258 -1536h-344zM498 1133l-76 -512h160l-76 512h-8z" />
    <glyph glyph-name="AE" unicode="&#xc6;" horiz-adv-x="1396" 
d="M606 0v326h-207l-67 -326h-312l342 1536h977v-287h-397v-327h367v-287h-367v-348h397v-287h-733zM606 621v661h-8l-137 -661h145z" />
    <glyph glyph-name="Ccedilla" unicode="&#xc7;" horiz-adv-x="980" 
d="M932 987h-336v279h-201v-996h201v308h336v-388l-191 -190h-180l-24 -49h104l61 -62v-114l-61 -62h-295v90h225v58h-163v61l38 78h-196l-191 190v1156l191 190h491l191 -190v-359z" />
    <glyph glyph-name="Egrave" unicode="&#xc8;" horiz-adv-x="860" 
d="M358 1593l-161 287h188l162 -287h-189zM70 0v1536h733v-287h-397v-327h366v-287h-366v-348h397v-287h-733z" />
    <glyph glyph-name="Eacute" unicode="&#xc9;" horiz-adv-x="860" 
d="M522 1880h189l-162 -287h-189zM70 0v1536h733v-287h-397v-327h366v-287h-366v-348h397v-287h-733z" />
    <glyph glyph-name="Ecircumflex" unicode="&#xca;" horiz-adv-x="860" 
d="M348 1862h213l184 -267h-184l-102 162h-8l-103 -162h-184zM70 0v1536h733v-287h-397v-327h366v-287h-366v-348h397v-287h-733z" />
    <glyph glyph-name="Edieresis" unicode="&#xcb;" horiz-adv-x="860" 
d="M233 1831h181v-229h-181v229zM494 1831h180v-229h-180v229zM70 0v1536h733v-287h-397v-327h366v-287h-366v-348h397v-287h-733z" />
    <glyph glyph-name="Igrave" unicode="&#xcc;" horiz-adv-x="479" 
d="M143 1593l-161 287h188l162 -287h-189zM72 1536h336v-1536h-336v1536z" />
    <glyph glyph-name="Iacute" unicode="&#xcd;" horiz-adv-x="479" 
d="M309 1880h189l-162 -287h-189zM72 1536h336v-1536h-336v1536z" />
    <glyph glyph-name="Icircumflex" unicode="&#xce;" horiz-adv-x="479" 
d="M133 1862h213l184 -267h-184l-102 162h-8l-103 -162h-184zM72 1536h336v-1536h-336v1536z" />
    <glyph glyph-name="Idieresis" unicode="&#xcf;" horiz-adv-x="479" 
d="M20 1831h181v-229h-181v229zM281 1831h180v-229h-180v229zM72 1536h336v-1536h-336v1536z" />
    <glyph glyph-name="Eth" unicode="&#xd0;" horiz-adv-x="1007" 
d="M406 270h206v996h-206v-340h122v-230h-122v-426zM70 0v696h-62v230h62v610h688l190 -190v-1156l-190 -190h-688z" />
    <glyph glyph-name="Ntilde" unicode="&#xd1;" horiz-adv-x="1028" 
d="M381 1731v-125h-148v149l99 98h157l125 -124h35v124h148v-149l-99 -98h-157l-125 125h-35zM70 0v1536h336l258 -813h8v813h286v-1536h-319l-274 813h-9v-813h-286z" />
    <glyph glyph-name="Ograve" unicode="&#xd2;" horiz-adv-x="1003" 
d="M406 1593l-162 287h188l162 -287h-188zM608 270v996h-213v-996h213zM250 0l-191 190v1156l191 190h504l190 -190v-1156l-190 -190h-504z" />
    <glyph glyph-name="Oacute" unicode="&#xd3;" horiz-adv-x="1003" 
d="M569 1880h189l-162 -287h-188zM608 270v996h-213v-996h213zM250 0l-191 190v1156l191 190h504l190 -190v-1156l-190 -190h-504z" />
    <glyph glyph-name="Ocircumflex" unicode="&#xd4;" horiz-adv-x="1003" 
d="M393 1862h213l185 -267h-185l-102 162h-8l-103 -162h-184zM608 270v996h-213v-996h213zM250 0l-191 190v1156l191 190h504l190 -190v-1156l-190 -190h-504z" />
    <glyph glyph-name="Otilde" unicode="&#xd5;" horiz-adv-x="1003" 
d="M367 1731v-125h-148v149l98 98h158l125 -124h35v124h147v-149l-98 -98h-158l-125 125h-34zM608 270v996h-213v-996h213zM250 0l-191 190v1156l191 190h504l190 -190v-1156l-190 -190h-504z" />
    <glyph glyph-name="Odieresis" unicode="&#xd6;" horiz-adv-x="1003" 
d="M281 1831h180v-229h-180v229zM541 1831h180v-229h-180v229zM608 270v996h-213v-996h213zM250 0l-191 190v1156l191 190h504l190 -190v-1156l-190 -190h-504z" />
    <glyph glyph-name="multiply" unicode="&#xd7;" horiz-adv-x="718" 
d="M553 483l-195 195l-190 -193l-135 133l192 193l-194 195l133 133l194 -195l193 193l133 -133l-192 -193l196 -195z" />
    <glyph glyph-name="Oslash" unicode="&#xd8;" horiz-adv-x="1003" 
d="M250 0l-60 59l-47 -82l-92 60l60 102l-52 51v1156l191 190h504l59 -59l47 82l92 -60l-59 -102l51 -51v-1156l-190 -190h-504zM608 270v609l-213 -486v-123h213zM395 1266v-607l213 486v121h-213z" />
    <glyph glyph-name="Ugrave" unicode="&#xd9;" horiz-adv-x="980" 
d="M395 1593l-162 287h189l162 -287h-189zM63 1536h336v-1266h199v1266h320v-1346l-191 -190h-473l-191 190v1346z" />
    <glyph glyph-name="Uacute" unicode="&#xda;" horiz-adv-x="980" 
d="M559 1880h189l-162 -287h-189zM63 1536h336v-1266h199v1266h320v-1346l-191 -190h-473l-191 190v1346z" />
    <glyph glyph-name="Ucircumflex" unicode="&#xdb;" horiz-adv-x="980" 
d="M383 1862h213l184 -267h-184l-102 162h-9l-102 -162h-184zM63 1536h336v-1266h199v1266h320v-1346l-191 -190h-473l-191 190v1346z" />
    <glyph glyph-name="Udieresis" unicode="&#xdc;" horiz-adv-x="980" 
d="M270 1831h181v-229h-181v229zM530 1831h181v-229h-181v229zM63 1536h336v-1266h199v1266h320v-1346l-191 -190h-473l-191 190v1346z" />
    <glyph glyph-name="Yacute" unicode="&#xdd;" horiz-adv-x="942" 
d="M541 1880h188l-162 -287h-188zM303 0v406l-291 1130h342l125 -606h6l125 606h320l-291 -1130v-406h-336z" />
    <glyph glyph-name="Thorn" unicode="&#xde;" horiz-adv-x="989" 
d="M608 549v463h-202v-463h202zM406 276v-276h-336v1536h336v-254h348l190 -190v-625l-190 -191h-348z" />
    <glyph glyph-name="germandbls" unicode="&#xdf;" horiz-adv-x="1327" 
d="M66 0v1358l178 178h743l166 -166v-313l-139 -139h-242v-168l373 -101l133 -139v-344l-166 -166h-494l-165 166v213h319v-141h186v172l-372 100l-133 139v336l170 170h276v152h-580v-1307h-253z" />
    <glyph glyph-name="agrave" unicode="&#xe0;" horiz-adv-x="925" 
d="M381 1212l-162 287h189l161 -287h-188zM547 918h-164v-156h-311v229l164 164h464l166 -166v-989h-291l-10 127l-90 -127h-278l-150 150v344l152 153l348 47v224zM367 238h180v272l-180 -25v-247z" />
    <glyph glyph-name="aacute" unicode="&#xe1;" horiz-adv-x="925" 
d="M545 1499h188l-162 -287h-188zM547 918h-164v-156h-311v229l164 164h464l166 -166v-989h-291l-10 127l-90 -127h-278l-150 150v344l152 153l348 47v224zM367 238h180v272l-180 -25v-247z" />
    <glyph glyph-name="acircumflex" unicode="&#xe2;" horiz-adv-x="925" 
d="M369 1481h213l184 -267h-184l-103 162h-8l-102 -162h-185zM547 918h-164v-156h-311v229l164 164h464l166 -166v-989h-291l-10 127l-90 -127h-278l-150 150v344l152 153l348 47v224zM367 238h180v272l-180 -25v-247z" />
    <glyph glyph-name="atilde" unicode="&#xe3;" horiz-adv-x="925" 
d="M342 1350v-125h-147v149l98 99h158l124 -125h35v125h148v-150l-99 -98h-157l-125 125h-35zM547 918h-164v-156h-311v229l164 164h464l166 -166v-989h-291l-10 127l-90 -127h-278l-150 150v344l152 153l348 47v224zM367 238h180v272l-180 -25v-247z" />
    <glyph glyph-name="adieresis" unicode="&#xe4;" horiz-adv-x="925" 
d="M256 1450h180v-229h-180v229zM516 1450h180v-229h-180v229zM547 918h-164v-156h-311v229l164 164h464l166 -166v-989h-291l-10 127l-90 -127h-278l-150 150v344l152 153l348 47v224zM367 238h180v272l-180 -25v-247z" />
    <glyph glyph-name="aring" unicode="&#xe5;" horiz-adv-x="925" 
d="M408 1305h137v118h-137v-118zM635 1434v-140l-80 -80h-158l-80 80v140l80 79h158zM547 918h-164v-156h-311v229l164 164h464l166 -166v-989h-291l-10 127l-90 -127h-278l-150 150v344l152 153l348 47v224zM367 238h180v272l-180 -25v-247z" />
    <glyph glyph-name="ae" unicode="&#xe6;" horiz-adv-x="1425" 
d="M547 918h-164v-156h-311v229l164 164h358l113 -111l110 111h389l166 -166v-475h-506v-276h187v161h319v-233l-166 -166h-372l-127 129l-129 -129h-381l-150 150v339l152 154l348 47v228zM367 238h180v268l-180 -25v-243zM866 918v-216h187v216h-187z" />
    <glyph glyph-name="ccedilla" unicode="&#xe7;" horiz-adv-x="915" 
d="M868 737h-319v181h-176v-680h176v198h319v-270l-166 -166h-178l-24 -49h104l62 -62v-114l-62 -62h-295v90h226v58h-164v61l39 78h-191l-166 166v823l166 166h483l166 -166v-252z" />
    <glyph glyph-name="egrave" unicode="&#xe8;" horiz-adv-x="931" 
d="M371 1212l-162 287h188l162 -287h-188zM373 918v-207h186v207h-186zM879 514h-506v-276h186v161h320v-233l-166 -166h-494l-166 166v823l166 166h494l166 -166v-475z" />
    <glyph glyph-name="eacute" unicode="&#xe9;" horiz-adv-x="931" 
d="M535 1499h188l-162 -287h-188zM373 918v-207h186v207h-186zM879 514h-506v-276h186v161h320v-233l-166 -166h-494l-166 166v823l166 166h494l166 -166v-475z" />
    <glyph glyph-name="ecircumflex" unicode="&#xea;" horiz-adv-x="931" 
d="M358 1481h213l185 -267h-185l-102 162h-8l-103 -162h-184zM373 918v-207h186v207h-186zM879 514h-506v-276h186v161h320v-233l-166 -166h-494l-166 166v823l166 166h494l166 -166v-475z" />
    <glyph glyph-name="edieresis" unicode="&#xeb;" horiz-adv-x="931" 
d="M246 1450h180v-229h-180v229zM506 1450h180v-229h-180v229zM373 918v-207h186v207h-186zM879 514h-506v-276h186v161h320v-233l-166 -166h-494l-166 166v823l166 166h494l166 -166v-475z" />
    <glyph glyph-name="igrave" unicode="&#xec;" horiz-adv-x="454" 
d="M131 1212l-162 287h189l161 -287h-188zM387 1155v-1155h-319v1155h319z" />
    <glyph glyph-name="iacute" unicode="&#xed;" horiz-adv-x="454" 
d="M297 1499h188l-161 -287h-189zM387 1155v-1155h-319v1155h319z" />
    <glyph glyph-name="icircumflex" unicode="&#xee;" horiz-adv-x="454" 
d="M121 1481h213l184 -267h-184l-103 162h-8l-102 -162h-184zM387 1155v-1155h-319v1155h319z" />
    <glyph glyph-name="idieresis" unicode="&#xef;" horiz-adv-x="454" 
d="M8 1450h180v-229h-180v229zM268 1450h181v-229h-181v229zM387 1155v-1155h-319v1155h319z" />
    <glyph glyph-name="eth" unicode="&#xf0;" horiz-adv-x="933" 
d="M561 238v680h-188v-680h188zM219 0l-166 166v823l166 166h256l86 -121v92l-106 148l-228 -74v123l158 51l-117 162h322l55 -78l186 62v-123l-114 -37l164 -232v-962l-166 -166h-496z" />
    <glyph glyph-name="ntilde" unicode="&#xf1;" 
d="M358 1350v-125h-147v149l98 99h158l125 -125h35v125h147v-150l-98 -98h-158l-125 125h-35zM385 918v-918h-319v1155h290l11 -133l96 133h256l166 -166v-989h-320v918h-180z" />
    <glyph glyph-name="ograve" unicode="&#xf2;" horiz-adv-x="933" 
d="M371 1212l-162 287h188l162 -287h-188zM561 238v680h-188v-680h188zM53 166v823l166 166h496l166 -166v-823l-166 -166h-496z" />
    <glyph glyph-name="oacute" unicode="&#xf3;" horiz-adv-x="933" 
d="M537 1499h188l-162 -287h-188zM561 238v680h-188v-680h188zM53 166v823l166 166h496l166 -166v-823l-166 -166h-496z" />
    <glyph glyph-name="ocircumflex" unicode="&#xf4;" horiz-adv-x="933" 
d="M360 1481h213l185 -267h-185l-102 162h-8l-103 -162h-184zM561 238v680h-188v-680h188zM53 166v823l166 166h496l166 -166v-823l-166 -166h-496z" />
    <glyph glyph-name="otilde" unicode="&#xf5;" horiz-adv-x="933" 
d="M334 1350v-125h-148v149l99 99h157l125 -125h35v125h148v-150l-99 -98h-157l-125 125h-35zM561 238v680h-188v-680h188zM53 166v823l166 166h496l166 -166v-823l-166 -166h-496z" />
    <glyph glyph-name="odieresis" unicode="&#xf6;" horiz-adv-x="933" 
d="M248 1450h180v-229h-180v229zM508 1450h180v-229h-180v229zM561 238v680h-188v-680h188zM53 166v823l166 166h496l166 -166v-823l-166 -166h-496z" />
    <glyph glyph-name="divide" unicode="&#xf7;" horiz-adv-x="667" 
d="M240 449v200h188v-200h-188zM25 905h618v-188h-618v188zM240 973v201h188v-201h-188z" />
    <glyph glyph-name="oslash" unicode="&#xf8;" horiz-adv-x="933" 
d="M219 0l-47 47l-43 -65l-84 55l53 84l-45 45v823l166 166h496l47 -47l43 66l84 -56l-53 -84l45 -45v-823l-166 -166h-496zM561 238v403l-188 -319v-84h188zM373 918v-404l188 320v84h-188z" />
    <glyph glyph-name="ugrave" unicode="&#xf9;" 
d="M373 1212l-162 287h188l162 -287h-188zM59 1155h320v-917h180v917h320v-1155h-291l-10 133l-97 -133h-256l-166 166v989z" />
    <glyph glyph-name="uacute" unicode="&#xfa;" 
d="M537 1499h188l-162 -287h-188zM59 1155h320v-917h180v917h320v-1155h-291l-10 133l-97 -133h-256l-166 166v989z" />
    <glyph glyph-name="ucircumflex" unicode="&#xfb;" 
d="M360 1481h213l185 -267h-185l-102 162h-8l-103 -162h-184zM59 1155h320v-917h180v917h320v-1155h-291l-10 133l-97 -133h-256l-166 166v989z" />
    <glyph glyph-name="udieresis" unicode="&#xfc;" 
d="M248 1450h180v-229h-180v229zM508 1450h180v-229h-180v229zM59 1155h320v-917h180v917h320v-1155h-291l-10 133l-97 -133h-256l-166 166v989z" />
    <glyph glyph-name="yacute" unicode="&#xfd;" horiz-adv-x="851" 
d="M510 1499h188l-161 -287h-189zM524 -287h-319l63 273l-256 1169h320l102 -698h8l103 698h295z" />
    <glyph glyph-name="thorn" unicode="&#xfe;" horiz-adv-x="950" 
d="M385 -287h-319v1823h319v-506l90 125h256l166 -166v-823l-166 -166h-256l-90 125v-412zM385 238h193v680h-193v-680z" />
    <glyph glyph-name="ydieresis" unicode="&#xff;" horiz-adv-x="851" 
d="M221 1450h180v-229h-180v229zM481 1450h181v-229h-181v229zM524 -287h-319l63 273l-256 1169h320l102 -698h8l103 698h295z" />
    <glyph glyph-name="Amacron" unicode="&#x100;" horiz-adv-x="1036" 
d="M291 1800h457v-164h-457v164zM672 0l-47 326h-246l-47 -326h-312l259 1536h479l258 -1536h-344zM498 1133l-76 -512h160l-76 512h-8z" />
    <glyph glyph-name="amacron" unicode="&#x101;" horiz-adv-x="925" 
d="M248 1419h457v-164h-457v164zM547 918h-164v-156h-311v229l164 164h464l166 -166v-989h-291l-10 127l-90 -127h-278l-150 150v344l152 153l348 47v224zM367 238h180v272l-180 -25v-247z" />
    <glyph glyph-name="Abreve" unicode="&#x102;" horiz-adv-x="1036" 
d="M270 1855h158v-116h178v116h158v-155l-98 -98h-297l-99 98v155zM672 0l-47 326h-246l-47 -326h-312l259 1536h479l258 -1536h-344zM498 1133l-76 -512h160l-76 512h-8z" />
    <glyph glyph-name="abreve" unicode="&#x103;" horiz-adv-x="925" 
d="M229 1475h158v-117h178v117h158v-156l-98 -98h-297l-99 98v156zM547 918h-164v-156h-311v229l164 164h464l166 -166v-989h-291l-10 127l-90 -127h-278l-150 150v344l152 153l348 47v224zM367 238h180v272l-180 -25v-247z" />
    <glyph glyph-name="Aogonek" unicode="&#x104;" horiz-adv-x="1036" 
d="M498 1133l-76 -512h160l-76 512h-8zM1034 -180v-107h-223l-61 62v90l127 135h-205l-47 326h-246l-47 -326h-312l259 1536h479l258 -1536l-119 -137v-43h137z" />
    <glyph glyph-name="aogonek" unicode="&#x105;" horiz-adv-x="925" 
d="M367 238h180v272l-180 -25v-247zM885 -180v-107h-223l-62 62v90l127 135h-152l-10 127l-90 -127h-278l-150 150v344l152 153l348 47v224h-164v-156h-311v229l164 164h464l166 -166v-989l-118 -137v-43h137z" />
    <glyph glyph-name="Cacute" unicode="&#x106;" horiz-adv-x="980" 
d="M565 1880h189l-162 -287h-189zM932 987h-336v279h-201v-996h201v308h336v-388l-191 -190h-491l-191 190v1156l191 190h491l191 -190v-359z" />
    <glyph glyph-name="cacute" unicode="&#x107;" horiz-adv-x="915" 
d="M528 1499h189l-162 -287h-188zM868 737h-319v181h-176v-680h176v198h319v-270l-166 -166h-483l-166 166v823l166 166h483l166 -166v-252z" />
    <glyph glyph-name="Cdotaccent" unicode="&#x10a;" horiz-adv-x="980" 
d="M383 1847h231v-245h-231v245zM932 987h-336v279h-201v-996h201v308h336v-388l-191 -190h-491l-191 190v1156l191 190h491l191 -190v-359z" />
    <glyph glyph-name="cdotaccent" unicode="&#x10b;" horiz-adv-x="915" 
d="M348 1466h232v-245h-232v245zM868 737h-319v181h-176v-680h176v198h319v-270l-166 -166h-483l-166 166v823l166 166h483l166 -166v-252z" />
    <glyph glyph-name="Ccaron" unicode="&#x10c;" horiz-adv-x="980" 
d="M602 1595h-213l-184 267h184l103 -162h8l102 162h184zM932 987h-336v279h-201v-996h201v308h336v-388l-191 -190h-491l-191 190v1156l191 190h491l191 -190v-359z" />
    <glyph glyph-name="ccaron" unicode="&#x10d;" horiz-adv-x="915" 
d="M567 1214h-213l-184 267h184l103 -162h8l102 162h185zM868 737h-319v181h-176v-680h176v198h319v-270l-166 -166h-483l-166 166v823l166 166h483l166 -166v-252z" />
    <glyph glyph-name="Dcaron" unicode="&#x10e;" horiz-adv-x="1007" 
d="M594 1595h-213l-184 267h184l102 -162h9l102 162h184zM612 270v996h-206v-996h206zM70 0v1536h688l190 -190v-1156l-190 -190h-688z" />
    <glyph glyph-name="dcaron" unicode="&#x10f;" horiz-adv-x="950" 
d="M1147 1536v-199l-107 -123h-82l99 123h-99v199h189zM565 1536h320v-1536h-291l-10 129l-92 -129h-273l-166 166v823l166 166h256l90 -125v506zM373 238h192v680h-192v-680z" />
    <glyph glyph-name="Dcroat" unicode="&#x110;" horiz-adv-x="1007" 
d="M406 270h206v996h-206v-340h122v-230h-122v-426zM70 0v696h-62v230h62v610h688l190 -190v-1156l-190 -190h-688z" />
    <glyph glyph-name="dcroat" unicode="&#x111;" horiz-adv-x="950" 
d="M565 1247h-172v180h172v109h320v-109h98v-180h-98v-1247h-291l-10 129l-92 -129h-273l-166 166v823l166 166h256l90 -125v217zM373 238h192v680h-192v-680z" />
    <glyph glyph-name="Emacron" unicode="&#x112;" horiz-adv-x="860" 
d="M227 1800h457v-164h-457v164zM70 0v1536h733v-287h-397v-327h366v-287h-366v-348h397v-287h-733z" />
    <glyph glyph-name="emacron" unicode="&#x113;" horiz-adv-x="931" 
d="M238 1419h456v-164h-456v164zM373 918v-207h186v207h-186zM879 514h-506v-276h186v161h320v-233l-166 -166h-494l-166 166v823l166 166h494l166 -166v-475z" />
    <glyph glyph-name="Ebreve" unicode="&#x114;" horiz-adv-x="860" 
d="M207 1855h158v-116h178v116h157v-155l-98 -98h-297l-98 98v155zM70 0v1536h733v-287h-397v-327h366v-287h-366v-348h397v-287h-733z" />
    <glyph glyph-name="ebreve" unicode="&#x115;" horiz-adv-x="931" 
d="M219 1475h158v-117h178v117h158v-156l-99 -98h-297l-98 98v156zM373 918v-207h186v207h-186zM879 514h-506v-276h186v161h320v-233l-166 -166h-494l-166 166v823l166 166h494l166 -166v-475z" />
    <glyph glyph-name="Edotaccent" unicode="&#x116;" horiz-adv-x="860" 
d="M342 1847h231v-245h-231v245zM70 0v1536h733v-287h-397v-327h366v-287h-366v-348h397v-287h-733z" />
    <glyph glyph-name="edotaccent" unicode="&#x117;" horiz-adv-x="931" 
d="M352 1466h232v-245h-232v245zM373 918v-207h186v207h-186zM879 514h-506v-276h186v161h320v-233l-166 -166h-494l-166 166v823l166 166h494l166 -166v-475z" />
    <glyph glyph-name="Eogonek" unicode="&#x118;" horiz-adv-x="860" 
d="M823 -287h-223l-61 62v90l127 135h-596v1536h733v-287h-397v-327h366v-287h-366v-348h397v-287h2l-119 -137v-43h137v-107z" />
    <glyph glyph-name="eogonek" unicode="&#x119;" horiz-adv-x="931" 
d="M373 918v-207h186v207h-186zM580 -180v-107h-224l-61 62v90l127 135h-203l-166 166v823l166 166h494l166 -166v-475h-506v-276h186v161h320v-233l-166 -166h-152l-119 -137v-43h138z" />
    <glyph glyph-name="Ecaron" unicode="&#x11a;" horiz-adv-x="860" 
d="M561 1595h-213l-184 267h184l103 -162h8l102 162h184zM70 0v1536h733v-287h-397v-327h366v-287h-366v-348h397v-287h-733z" />
    <glyph glyph-name="ecaron" unicode="&#x11b;" horiz-adv-x="931" 
d="M571 1214h-213l-184 267h184l103 -162h8l102 162h185zM373 918v-207h186v207h-186zM879 514h-506v-276h186v161h320v-233l-166 -166h-494l-166 166v823l166 166h494l166 -166v-475z" />
    <glyph glyph-name="Gbreve" unicode="&#x11e;" horiz-adv-x="1001" 
d="M252 1855h158v-116h178v116h157v-155l-98 -98h-297l-98 98v155zM942 987h-336v279h-211v-996h228v293h-134v271h453v-644l-190 -190h-502l-191 190v1156l191 190h502l190 -190v-359z" />
    <glyph glyph-name="gbreve" unicode="&#x11f;" horiz-adv-x="950" 
d="M240 1475h157v-117h178v117h158v-156l-98 -98h-297l-98 98v156zM53 33h320v-90h192v288l-90 -125h-256l-166 166v717l166 166h273l92 -129l10 129h291v-1276l-166 -166h-504l-162 162v158zM565 344v574h-192v-574h192z" />
    <glyph glyph-name="Gdotaccent" unicode="&#x120;" horiz-adv-x="1001" 
d="M387 1847h231v-245h-231v245zM942 987h-336v279h-211v-996h228v293h-134v271h453v-644l-190 -190h-502l-191 190v1156l191 190h502l190 -190v-359z" />
    <glyph glyph-name="gdotaccent" unicode="&#x121;" horiz-adv-x="950" 
d="M375 1466h231v-245h-231v245zM53 33h320v-90h192v288l-90 -125h-256l-166 166v717l166 166h273l92 -129l10 129h291v-1276l-166 -166h-504l-162 162v158zM565 344v574h-192v-574h192z" />
    <glyph glyph-name="uni0122" unicode="&#x122;" horiz-adv-x="1001" 
d="M594 -43v-199l-107 -123h-81l98 123h-98v199h188zM942 987h-336v279h-211v-996h228v293h-134v271h453v-644l-190 -190h-502l-191 190v1156l191 190h502l190 -190v-359z" />
    <glyph glyph-name="uni0123" unicode="&#x123;" horiz-adv-x="950" 
d="M393 1225v198l107 123h82l-99 -123h99v-198h-189zM53 33h320v-90h192v288l-90 -125h-256l-166 166v717l166 166h273l92 -129l10 129h291v-1276l-166 -166h-504l-162 162v158zM565 344v574h-192v-574h192z" />
    <glyph glyph-name="Hbar" unicode="&#x126;" horiz-adv-x="1011" 
d="M406 627v-627h-336v1118h-62v197h62v221h336v-221h200v221h336v-221h62v-197h-62v-1118h-336v627h-200zM406 930h200v188h-200v-188z" />
    <glyph glyph-name="hbar" unicode="&#x127;" 
d="M385 918v-918h-319v1247h-99v180h99v109h319v-109h172v-180h-172v-217l90 125h244l166 -166v-989h-320v918h-180z" />
    <glyph glyph-name="Itilde" unicode="&#x128;" horiz-adv-x="479" 
d="M106 1731v-125h-147v149l98 98h158l125 -124h35v124h147v-149l-98 -98h-158l-125 125h-35zM72 1536h336v-1536h-336v1536z" />
    <glyph glyph-name="itilde" unicode="&#x129;" horiz-adv-x="454" 
d="M94 1350v-125h-147v149l98 99h158l125 -125h34v125h148v-150l-98 -98h-158l-125 125h-35zM387 1155v-1155h-319v1155h319z" />
    <glyph glyph-name="Imacron" unicode="&#x12a;" horiz-adv-x="479" 
d="M12 1800h457v-164h-457v164zM72 1536h336v-1536h-336v1536z" />
    <glyph glyph-name="imacron" unicode="&#x12b;" horiz-adv-x="454" 
d="M0 1419h457v-164h-457v164zM387 1155v-1155h-319v1155h319z" />
    <glyph glyph-name="Ibreve" unicode="&#x12c;" horiz-adv-x="479" 
d="M-8 1855h158v-116h178v116h157v-155l-98 -98h-297l-98 98v155zM72 1536h336v-1536h-336v1536z" />
    <glyph glyph-name="ibreve" unicode="&#x12d;" horiz-adv-x="454" 
d="M-20 1475h157v-117h178v117h158v-156l-98 -98h-297l-98 98v156zM387 1155v-1155h-319v1155h319z" />
    <glyph glyph-name="Iogonek" unicode="&#x12e;" horiz-adv-x="479" 
d="M426 -180v-107h-223l-62 62v90l127 135h-196v1536h336v-1536l-119 -137v-43h137z" />
    <glyph glyph-name="iogonek" unicode="&#x12f;" horiz-adv-x="454" 
d="M406 -180v-107h-224l-61 62v90l127 135h-180v1155h319v-1155l-119 -137v-43h138zM387 1520v-244h-319v244h319z" />
    <glyph glyph-name="Idotaccent" unicode="&#x130;" horiz-adv-x="479" 
d="M127 1847h231v-245h-231v245zM72 1536h336v-1536h-336v1536z" />
    <glyph glyph-name="dotlessi" unicode="&#x131;" horiz-adv-x="454" 
d="M387 1155v-1155h-319v1155h319z" />
    <glyph glyph-name="IJ" unicode="&#x132;" horiz-adv-x="1150" 
d="M518 0v287h234v1249h335v-1341l-194 -195h-375zM72 1536h336v-1536h-336v1536z" />
    <glyph glyph-name="ij" unicode="&#x133;" horiz-adv-x="909" 
d="M401 -287v213h121v1229h320v-1278l-164 -164h-277zM842 1520v-244h-320v244h320zM387 1155v-1155h-319v1155h319zM387 1520v-244h-319v244h319z" />
    <glyph glyph-name="uni0136" unicode="&#x136;" horiz-adv-x="987" 
d="M610 -43v-199l-106 -123h-82l98 123h-98v199h188zM406 0h-336v1536h336v-623h10l202 623h343l-250 -727l260 -809h-355l-200 643h-10v-643z" />
    <glyph glyph-name="uni0137" unicode="&#x137;" horiz-adv-x="907" 
d="M567 -43v-199l-106 -123h-82l98 123h-98v199h188zM385 485v-485h-319v1536h319v-829h10l156 448h330l-213 -541l223 -614h-330l-166 485h-10z" />
    <glyph glyph-name="Lacute" unicode="&#x139;" horiz-adv-x="815" 
d="M311 1880h189l-162 -287h-188zM70 0v1536h336v-1249h366v-287h-702z" />
    <glyph glyph-name="lacute" unicode="&#x13a;" horiz-adv-x="454" 
d="M297 1880h188l-161 -287h-189zM387 1536v-1536h-319v1536h319z" />
    <glyph glyph-name="uni013B" unicode="&#x13b;" horiz-adv-x="815" 
d="M514 -43v-199l-106 -123h-82l98 123h-98v199h188zM70 0v1536h336v-1249h366v-287h-702z" />
    <glyph glyph-name="uni013C" unicode="&#x13c;" horiz-adv-x="454" 
d="M322 -43v-199l-107 -123h-82l98 123h-98v199h189zM387 1536v-1536h-319v1536h319z" />
    <glyph glyph-name="Lcaron" unicode="&#x13d;" horiz-adv-x="815" 
d="M686 1536v-199l-106 -123h-82l98 123h-98v199h188zM70 0v1536h336v-1249h366v-287h-702z" />
    <glyph glyph-name="lcaron" unicode="&#x13e;" horiz-adv-x="454" 
d="M649 1536v-199l-106 -123h-82l98 123h-98v199h188zM387 1536v-1536h-319v1536h319z" />
    <glyph glyph-name="Ldot" unicode="&#x13f;" horiz-adv-x="815" 
d="M492 891h231v-246h-231v246zM70 0v1536h336v-1249h366v-287h-702z" />
    <glyph glyph-name="ldot" unicode="&#x140;" horiz-adv-x="724" 
d="M461 891h231v-246h-231v246zM387 1536v-1536h-319v1536h319z" />
    <glyph glyph-name="Lslash" unicode="&#x141;" horiz-adv-x="815" 
d="M772 0h-702v578l-62 -43v233l62 43v725h336v-492l184 130v-234l-184 -129v-524h366v-287z" />
    <glyph glyph-name="lslash" unicode="&#x142;" horiz-adv-x="503" 
d="M412 0h-320v657l-88 -55v199l88 55v680h320v-481l88 55v-201l-88 -55v-854z" />
    <glyph glyph-name="Nacute" unicode="&#x143;" horiz-adv-x="1028" 
d="M584 1880h188l-162 -287h-188zM70 0v1536h336l258 -813h8v813h286v-1536h-319l-274 813h-9v-813h-286z" />
    <glyph glyph-name="nacute" unicode="&#x144;" 
d="M561 1499h189l-162 -287h-189zM385 918v-918h-319v1155h290l11 -133l96 133h256l166 -166v-989h-320v918h-180z" />
    <glyph glyph-name="uni0145" unicode="&#x145;" horiz-adv-x="1028" 
d="M608 -43v-199l-106 -123h-82l98 123h-98v199h188zM70 0v1536h336l258 -813h8v813h286v-1536h-319l-274 813h-9v-813h-286z" />
    <glyph glyph-name="uni0146" unicode="&#x146;" 
d="M586 -43v-199l-107 -123h-82l99 123h-99v199h189zM385 918v-918h-319v1155h290l11 -133l96 133h256l166 -166v-989h-320v918h-180z" />
    <glyph glyph-name="Ncaron" unicode="&#x147;" horiz-adv-x="1028" 
d="M621 1595h-213l-185 267h185l102 -162h8l103 162h184zM70 0v1536h336l258 -813h8v813h286v-1536h-319l-274 813h-9v-813h-286z" />
    <glyph glyph-name="ncaron" unicode="&#x148;" 
d="M600 1214h-213l-184 267h184l102 -162h9l102 162h184zM385 918v-918h-319v1155h290l11 -133l96 133h256l166 -166v-989h-320v918h-180z" />
    <glyph glyph-name="Eng" unicode="&#x14a;" horiz-adv-x="1028" 
d="M496 -279v205h166l-297 887h-9v-813h-286v1536h336l258 -813h8v813h286v-1628l-186 -187h-276z" />
    <glyph glyph-name="eng" unicode="&#x14b;" 
d="M444 -287v197h121v1008h-180v-918h-319v1155h290l11 -133l96 133h256l166 -166v-1112l-164 -164h-277z" />
    <glyph glyph-name="Omacron" unicode="&#x14c;" horiz-adv-x="1003" 
d="M274 1800h457v-164h-457v164zM608 270v996h-213v-996h213zM250 0l-191 190v1156l191 190h504l190 -190v-1156l-190 -190h-504z" />
    <glyph glyph-name="omacron" unicode="&#x14d;" horiz-adv-x="933" 
d="M240 1419h456v-164h-456v164zM561 238v680h-188v-680h188zM53 166v823l166 166h496l166 -166v-823l-166 -166h-496z" />
    <glyph glyph-name="Obreve" unicode="&#x14e;" horiz-adv-x="1003" 
d="M254 1855h158v-116h178v116h158v-155l-99 -98h-297l-98 98v155zM608 270v996h-213v-996h213zM250 0l-191 190v1156l191 190h504l190 -190v-1156l-190 -190h-504z" />
    <glyph glyph-name="obreve" unicode="&#x14f;" horiz-adv-x="933" 
d="M219 1475h158v-117h178v117h158v-156l-99 -98h-297l-98 98v156zM561 238v680h-188v-680h188zM53 166v823l166 166h496l166 -166v-823l-166 -166h-496z" />
    <glyph glyph-name="Ohungarumlaut" unicode="&#x150;" horiz-adv-x="1003" 
d="M700 1880h189l-162 -287h-188zM434 1880h189l-162 -287h-189zM608 270v996h-213v-996h213zM250 0l-191 190v1156l191 190h504l190 -190v-1156l-190 -190h-504z" />
    <glyph glyph-name="ohungarumlaut" unicode="&#x151;" horiz-adv-x="933" 
d="M666 1499h188l-162 -287h-188zM399 1499h189l-162 -287h-188zM561 238v680h-188v-680h188zM53 166v823l166 166h496l166 -166v-823l-166 -166h-496z" />
    <glyph glyph-name="OE" unicode="&#x152;" horiz-adv-x="1392" 
d="M602 270v996h-207v-996h207zM1335 1536v-287h-397v-327h367v-287h-367v-348h397v-287h-1085l-191 190v1156l191 190h1085z" />
    <glyph glyph-name="oe" unicode="&#x153;" horiz-adv-x="1439" 
d="M1386 514h-505v-276h186v161h319v-233l-165 -166h-390l-110 113l-113 -113h-389l-166 166v823l166 166h389l113 -111l110 111h390l165 -166v-475zM881 918v-207h186v207h-186zM561 238v680h-188v-680h188z" />
    <glyph glyph-name="Racute" unicode="&#x154;" horiz-adv-x="1005" 
d="M573 1880h189l-162 -287h-188zM406 0h-336v1536h686l190 -190v-467l-143 -144l143 -143v-592h-336v608h-204v-608zM610 862v404h-204v-404h204z" />
    <glyph glyph-name="racute" unicode="&#x155;" horiz-adv-x="694" 
d="M430 1499h188l-161 -287h-189zM385 0h-319v1155h290l11 -129l92 129h200v-303h-274v-852z" />
    <glyph glyph-name="uni0156" unicode="&#x156;" horiz-adv-x="1005" 
d="M598 -43v-199l-106 -123h-82l98 123h-98v199h188zM406 0h-336v1536h686l190 -190v-467l-143 -144l143 -143v-592h-336v608h-204v-608zM610 862v404h-204v-404h204z" />
    <glyph glyph-name="uni0157" unicode="&#x157;" horiz-adv-x="694" 
d="M319 -43v-199l-106 -123h-82l98 123h-98v199h188zM385 0h-319v1155h290l11 -129l92 129h200v-303h-274v-852z" />
    <glyph glyph-name="Rcaron" unicode="&#x158;" horiz-adv-x="1005" 
d="M610 1595h-213l-184 267h184l103 -162h8l102 162h185zM406 0h-336v1536h686l190 -190v-467l-143 -144l143 -143v-592h-336v608h-204v-608zM610 862v404h-204v-404h204z" />
    <glyph glyph-name="rcaron" unicode="&#x159;" horiz-adv-x="694" 
d="M469 1214h-213l-184 267h184l102 -162h9l102 162h184zM385 0h-319v1155h290l11 -129l92 129h200v-303h-274v-852z" />
    <glyph glyph-name="Sacute" unicode="&#x15a;" horiz-adv-x="972" 
d="M555 1880h188l-161 -287h-189zM51 520h336v-250h209v289l-377 125l-168 180v482l191 190h489l191 -190v-320h-336v240h-207v-279l377 -123l168 -180v-494l-191 -190h-491l-191 190v330z" />
    <glyph glyph-name="sacute" unicode="&#x15b;" horiz-adv-x="923" 
d="M530 1499h189l-162 -287h-188zM49 379h320v-141h186v172l-371 100l-133 139v340l166 166h490l165 -166v-211h-319v140h-182v-168l370 -101l133 -139v-344l-165 -166h-494l-166 166v213z" />
    <glyph glyph-name="Scedilla" unicode="&#x15e;" horiz-adv-x="972" 
d="M51 520h336v-250h209v289l-377 125l-168 180v482l191 190h489l191 -190v-320h-336v240h-207v-279l377 -123l168 -180v-494l-191 -190h-182l-25 -49h105l61 -62v-114l-61 -62h-295v90h225v58h-164v61l39 78h-194l-191 190v330z" />
    <glyph glyph-name="scedilla" unicode="&#x15f;" horiz-adv-x="923" 
d="M49 379h320v-141h186v172l-371 100l-133 139v340l166 166h490l165 -166v-211h-319v140h-182v-168l370 -101l133 -139v-344l-165 -166h-183l-24 -49h104l62 -62v-114l-62 -62h-295v90h226v58h-164v61l39 78h-197l-166 166v213z" />
    <glyph glyph-name="Scaron" unicode="&#x160;" horiz-adv-x="972" 
d="M592 1595h-213l-184 267h184l102 -162h8l103 162h184zM51 520h336v-250h209v289l-377 125l-168 180v482l191 190h489l191 -190v-320h-336v240h-207v-279l377 -123l168 -180v-494l-191 -190h-491l-191 190v330z" />
    <glyph glyph-name="scaron" unicode="&#x161;" horiz-adv-x="923" 
d="M567 1214h-213l-184 267h184l103 -162h8l102 162h185zM49 379h320v-141h186v172l-371 100l-133 139v340l166 166h490l165 -166v-211h-319v140h-182v-168l370 -101l133 -139v-344l-165 -166h-494l-166 166v213z" />
    <glyph glyph-name="Tcaron" unicode="&#x164;" horiz-adv-x="882" 
d="M549 1595h-213l-184 267h184l102 -162h8l103 162h184zM274 0v1249h-247v287h829v-287h-246v-1249h-336z" />
    <glyph glyph-name="tcaron" unicode="&#x165;" horiz-adv-x="700" 
d="M721 1550v-198l-107 -123h-82l99 123h-99v198h189zM129 918h-109v237h109v281h320v-281h210v-237h-210v-680h210v-238h-360l-170 170v748z" />
    <glyph glyph-name="Tbar" unicode="&#x166;" horiz-adv-x="882" 
d="M752 696h-142v-696h-336v696h-143v230h143v323h-247v287h829v-287h-246v-323h142v-230z" />
    <glyph glyph-name="tbar" unicode="&#x167;" horiz-adv-x="700" 
d="M659 238v-238h-360l-170 170v446h-109v181h109v121h-109v237h109v281h320v-281h210v-237h-210v-121h210v-181h-210v-378h210z" />
    <glyph glyph-name="Utilde" unicode="&#x168;" horiz-adv-x="980" 
d="M356 1731v-125h-147v149l98 98h158l125 -124h35v124h147v-149l-98 -98h-158l-125 125h-35zM63 1536h336v-1266h199v1266h320v-1346l-191 -190h-473l-191 190v1346z" />
    <glyph glyph-name="utilde" unicode="&#x169;" 
d="M334 1350v-125h-148v149l99 99h157l125 -125h35v125h148v-150l-99 -98h-157l-125 125h-35zM59 1155h320v-917h180v917h320v-1155h-291l-10 133l-97 -133h-256l-166 166v989z" />
    <glyph glyph-name="Umacron" unicode="&#x16a;" horiz-adv-x="980" 
d="M264 1800h457v-164h-457v164zM63 1536h336v-1266h199v1266h320v-1346l-191 -190h-473l-191 190v1346z" />
    <glyph glyph-name="umacron" unicode="&#x16b;" 
d="M240 1419h456v-164h-456v164zM59 1155h320v-917h180v917h320v-1155h-291l-10 133l-97 -133h-256l-166 166v989z" />
    <glyph glyph-name="Ubreve" unicode="&#x16c;" horiz-adv-x="980" 
d="M244 1855h157v-116h179v116h157v-155l-98 -98h-297l-98 98v155zM63 1536h336v-1266h199v1266h320v-1346l-191 -190h-473l-191 190v1346z" />
    <glyph glyph-name="ubreve" unicode="&#x16d;" 
d="M221 1475h158v-117h178v117h158v-156l-99 -98h-297l-98 98v156zM59 1155h320v-917h180v917h320v-1155h-291l-10 133l-97 -133h-256l-166 166v989z" />
    <glyph glyph-name="Uring" unicode="&#x16e;" horiz-adv-x="980" 
d="M422 1686h137v118h-137v-118zM649 1815v-140l-80 -80h-157l-80 80v140l80 79h157zM63 1536h336v-1266h199v1266h320v-1346l-191 -190h-473l-191 190v1346z" />
    <glyph glyph-name="uring" unicode="&#x16f;" 
d="M399 1305h138v118h-138v-118zM627 1434v-140l-80 -80h-158l-80 80v140l80 79h158zM59 1155h320v-917h180v917h320v-1155h-291l-10 133l-97 -133h-256l-166 166v989z" />
    <glyph glyph-name="Uhungarumlaut" unicode="&#x170;" horiz-adv-x="980" 
d="M690 1880h189l-162 -287h-189zM424 1880h188l-161 -287h-189zM63 1536h336v-1266h199v1266h320v-1346l-191 -190h-473l-191 190v1346z" />
    <glyph glyph-name="uhungarumlaut" unicode="&#x171;" 
d="M666 1499h188l-162 -287h-188zM399 1499h189l-162 -287h-188zM59 1155h320v-917h180v917h320v-1155h-291l-10 133l-97 -133h-256l-166 166v989z" />
    <glyph glyph-name="Uogonek" unicode="&#x172;" horiz-adv-x="980" 
d="M604 -180v-107h-223l-62 62v90l127 135h-192l-191 190v1346h336v-1266h199v1266h320v-1346l-191 -190h-141l-119 -137v-43h137z" />
    <glyph glyph-name="uogonek" unicode="&#x173;" 
d="M897 -180v-107h-223l-62 62v90l127 135h-151l-10 133l-97 -133h-256l-166 166v989h320v-917h180v917h320v-1155l-119 -137v-43h137z" />
    <glyph glyph-name="Wcircumflex" unicode="&#x174;" horiz-adv-x="1331" 
d="M580 1862h213l184 -267h-184l-103 162h-8l-102 -162h-185zM801 0l-123 874h-8l-123 -874h-352l-177 1536h328l72 -854h8l131 854h254l131 -854h6l74 854h291l-176 -1536h-336z" />
    <glyph glyph-name="wcircumflex" unicode="&#x175;" horiz-adv-x="1275" 
d="M563 1481h213l185 -267h-185l-102 162h-8l-103 -162h-184zM743 0l-92 690h-8l-96 -690h-383l-146 1155h320l70 -692h6l102 692h303l103 -692h8l67 692h260l-145 -1155h-369z" />
    <glyph glyph-name="Ycircumflex" unicode="&#x176;" horiz-adv-x="942" 
d="M365 1862h213l184 -267h-184l-103 162h-8l-102 -162h-185zM303 0v406l-291 1130h342l125 -606h6l125 606h320l-291 -1130v-406h-336z" />
    <glyph glyph-name="ycircumflex" unicode="&#x177;" horiz-adv-x="851" 
d="M336 1481h213l184 -267h-184l-103 162h-8l-102 -162h-184zM524 -287h-319l63 273l-256 1169h320l102 -698h8l103 698h295z" />
    <glyph glyph-name="Ydieresis" unicode="&#x178;" horiz-adv-x="942" 
d="M252 1831h180v-229h-180v229zM512 1831h180v-229h-180v229zM303 0v406l-291 1130h342l125 -606h6l125 606h320l-291 -1130v-406h-336z" />
    <glyph glyph-name="Zacute" unicode="&#x179;" horiz-adv-x="888" 
d="M512 1880h188l-161 -287h-189zM840 1536v-254l-408 -995h410v-287h-795v254l408 995h-406v287h791z" />
    <glyph glyph-name="zacute" unicode="&#x17a;" horiz-adv-x="794" 
d="M467 1499h188l-161 -287h-189zM756 1155v-205l-353 -712h355v-238h-721v205l356 713h-354v237h717z" />
    <glyph glyph-name="Zdotaccent" unicode="&#x17b;" horiz-adv-x="888" 
d="M330 1847h231v-245h-231v245zM840 1536v-254l-408 -995h410v-287h-795v254l408 995h-406v287h791z" />
    <glyph glyph-name="zdotaccent" unicode="&#x17c;" horiz-adv-x="794" 
d="M285 1466h231v-245h-231v245zM756 1155v-205l-353 -712h355v-238h-721v205l356 713h-354v237h717z" />
    <glyph glyph-name="Zcaron" unicode="&#x17d;" horiz-adv-x="888" 
d="M549 1595h-213l-184 267h184l102 -162h8l103 162h184zM840 1536v-254l-408 -995h410v-287h-795v254l408 995h-406v287h791z" />
    <glyph glyph-name="zcaron" unicode="&#x17e;" horiz-adv-x="794" 
d="M504 1214h-213l-185 267h185l102 -162h8l103 162h184zM756 1155v-205l-353 -712h355v-238h-721v205l356 713h-354v237h717z" />
    <glyph glyph-name="florin" unicode="&#x192;" horiz-adv-x="839" 
d="M25 0l28 238h119l84 680h-119l29 237h119l26 217l164 164h340l-24 -238h-170l-17 -143h166l-29 -237h-166l-92 -754l-164 -164h-294z" />
    <glyph glyph-name="AEacute" unicode="&#x1fc;" horiz-adv-x="1396" 
d="M846 1880h188l-162 -287h-188zM606 0v326h-207l-67 -326h-312l342 1536h977v-287h-397v-327h367v-287h-367v-348h397v-287h-733zM606 621v661h-8l-137 -661h145z" />
    <glyph glyph-name="aeacute" unicode="&#x1fd;" horiz-adv-x="1425" 
d="M778 1499h189l-162 -287h-189zM547 918h-164v-156h-311v229l164 164h358l113 -111l110 111h389l166 -166v-475h-506v-276h187v161h319v-233l-166 -166h-372l-127 129l-129 -129h-381l-150 150v339l152 154l348 47v228zM367 238h180v268l-180 -25v-243zM866 918v-216h187
v216h-187z" />
    <glyph glyph-name="uni0218" unicode="&#x218;" horiz-adv-x="972" 
d="M580 -43v-199l-107 -123h-82l98 123h-98v199h189zM51 520h336v-250h209v289l-377 125l-168 180v482l191 190h489l191 -190v-320h-336v240h-207v-279l377 -123l168 -180v-494l-191 -190h-491l-191 190v330z" />
    <glyph glyph-name="uni0219" unicode="&#x219;" horiz-adv-x="923" 
d="M555 -43v-199l-106 -123h-82l98 123h-98v199h188zM49 379h320v-141h186v172l-371 100l-133 139v340l166 166h490l165 -166v-211h-319v140h-182v-168l370 -101l133 -139v-344l-165 -166h-494l-166 166v213z" />
    <glyph glyph-name="uni021A" unicode="&#x21a;" horiz-adv-x="882" 
d="M535 -43v-199l-107 -123h-82l98 123h-98v199h189zM274 0v1249h-247v287h829v-287h-246v-1249h-336z" />
    <glyph glyph-name="uni021B" unicode="&#x21b;" horiz-adv-x="700" 
d="M518 -43v-199l-106 -123h-82l98 123h-98v199h188zM129 918h-109v237h109v281h320v-281h210v-237h-210v-680h210v-238h-360l-170 170v748z" />
    <glyph glyph-name="uni0237" unicode="&#x237;" horiz-adv-x="454" 
d="M-53 -287v213h121v1229h319v-1278l-164 -164h-276z" />
    <glyph glyph-name="circumflex" unicode="&#x2c6;" horiz-adv-x="991" 
d="M389 1481h213l184 -267h-184l-102 162h-8l-103 -162h-184z" />
    <glyph glyph-name="caron" unicode="&#x2c7;" horiz-adv-x="991" 
d="M602 1214h-213l-184 267h184l103 -162h8l102 162h184z" />
    <glyph glyph-name="breve" unicode="&#x2d8;" horiz-adv-x="903" 
d="M205 1475h157v-117h179v117h157v-156l-98 -98h-297l-98 98v156z" />
    <glyph glyph-name="dotaccent" unicode="&#x2d9;" horiz-adv-x="641" 
d="M205 1466h231v-245h-231v245z" />
    <glyph glyph-name="ring" unicode="&#x2da;" horiz-adv-x="727" 
d="M295 1305h137v118h-137v-118zM522 1434v-140l-80 -80h-157l-80 80v140l80 79h157z" />
    <glyph glyph-name="ogonek" unicode="&#x2db;" horiz-adv-x="694" 
d="M489 -287h-223l-61 62v90l131 139l135 -4l-119 -137v-43h137v-107z" />
    <glyph glyph-name="tilde" unicode="&#x2dc;" horiz-adv-x="972" 
d="M352 1350v-125h-147v149l98 99h158l125 -125h35v125h147v-150l-98 -98h-158l-125 125h-35z" />
    <glyph glyph-name="hungarumlaut" unicode="&#x2dd;" horiz-adv-x="1026" 
d="M633 1499h188l-162 -287h-188zM367 1499h188l-162 -287h-188z" />
    <glyph glyph-name="Wgrave" unicode="&#x1e80;" horiz-adv-x="1331" 
d="M592 1593l-162 287h188l162 -287h-188zM801 0l-123 874h-8l-123 -874h-352l-177 1536h328l72 -854h8l131 854h254l131 -854h6l74 854h291l-176 -1536h-336z" />
    <glyph glyph-name="wgrave" unicode="&#x1e81;" horiz-adv-x="1275" 
d="M573 1212l-161 287h188l162 -287h-189zM743 0l-92 690h-8l-96 -690h-383l-146 1155h320l70 -692h6l102 692h303l103 -692h8l67 692h260l-145 -1155h-369z" />
    <glyph glyph-name="Wacute" unicode="&#x1e82;" horiz-adv-x="1331" 
d="M756 1880h188l-162 -287h-188zM801 0l-123 874h-8l-123 -874h-352l-177 1536h328l72 -854h8l131 854h254l131 -854h6l74 854h291l-176 -1536h-336z" />
    <glyph glyph-name="wacute" unicode="&#x1e83;" horiz-adv-x="1275" 
d="M739 1499h189l-162 -287h-188zM743 0l-92 690h-8l-96 -690h-383l-146 1155h320l70 -692h6l102 692h303l103 -692h8l67 692h260l-145 -1155h-369z" />
    <glyph glyph-name="Wdieresis" unicode="&#x1e84;" horiz-adv-x="1331" 
d="M467 1831h180v-229h-180v229zM727 1831h180v-229h-180v229zM801 0l-123 874h-8l-123 -874h-352l-177 1536h328l72 -854h8l131 854h254l131 -854h6l74 854h291l-176 -1536h-336z" />
    <glyph glyph-name="wdieresis" unicode="&#x1e85;" horiz-adv-x="1275" 
d="M451 1450h180v-229h-180v229zM711 1450h180v-229h-180v229zM743 0l-92 690h-8l-96 -690h-383l-146 1155h320l70 -692h6l102 692h303l103 -692h8l67 692h260l-145 -1155h-369z" />
    <glyph glyph-name="uni1EBC" unicode="&#x1ebc;" horiz-adv-x="860" 
d="M319 1731v-125h-147v149l98 98h158l125 -124h35v124h147v-149l-98 -98h-158l-125 125h-35zM70 0v1536h733v-287h-397v-327h366v-287h-366v-348h397v-287h-733z" />
    <glyph glyph-name="uni1EBD" unicode="&#x1ebd;" horiz-adv-x="931" 
d="M332 1350v-125h-148v149l99 99h157l125 -125h35v125h148v-150l-99 -98h-157l-125 125h-35zM373 918v-207h186v207h-186zM879 514h-506v-276h186v161h320v-233l-166 -166h-494l-166 166v823l166 166h494l166 -166v-475z" />
    <glyph glyph-name="Ygrave" unicode="&#x1ef2;" horiz-adv-x="942" 
d="M375 1593l-162 287h188l162 -287h-188zM303 0v406l-291 1130h342l125 -606h6l125 606h320l-291 -1130v-406h-336z" />
    <glyph glyph-name="ygrave" unicode="&#x1ef3;" horiz-adv-x="851" 
d="M346 1212l-162 287h189l162 -287h-189zM524 -287h-319l63 273l-256 1169h320l102 -698h8l103 698h295z" />
    <glyph glyph-name="uni1EF8" unicode="&#x1ef8;" horiz-adv-x="942" 
d="M338 1731v-125h-148v149l99 98h157l125 -124h35v124h148v-149l-99 -98h-157l-125 125h-35zM303 0v406l-291 1130h342l125 -606h6l125 606h320l-291 -1130v-406h-336z" />
    <glyph glyph-name="uni1EF9" unicode="&#x1ef9;" horiz-adv-x="851" 
d="M307 1350v-125h-147v149l98 99h158l125 -125h34v125h148v-150l-98 -98h-158l-125 125h-35zM524 -287h-319l63 273l-256 1169h320l102 -698h8l103 698h295z" />
    <glyph glyph-name="uni2009" unicode="&#x2009;" horiz-adv-x="143" 
 />
    <glyph glyph-name="endash" unicode="&#x2013;" horiz-adv-x="778" 
d="M25 954h729v-286h-729v286z" />
    <glyph glyph-name="emdash" unicode="&#x2014;" horiz-adv-x="1064" 
d="M25 954h1015v-286h-1015v286z" />
    <glyph glyph-name="quoteleft" unicode="&#x2018;" horiz-adv-x="352" 
d="M53 1042v295l133 199h113l-82 -199h82v-295h-246z" />
    <glyph glyph-name="quoteright" unicode="&#x2019;" horiz-adv-x="352" 
d="M299 1536v-295l-133 -199h-113l82 199h-82v295h246z" />
    <glyph glyph-name="quotesinglbase" unicode="&#x201a;" horiz-adv-x="352" 
d="M299 295v-295l-133 -199h-113l82 199h-82v295h246z" />
    <glyph glyph-name="quotedblleft" unicode="&#x201c;" horiz-adv-x="675" 
d="M53 1042v295l133 199h113l-82 -199h82v-295h-246zM377 1042v295l133 199h113l-82 -199h82v-295h-246z" />
    <glyph glyph-name="quotedblright" unicode="&#x201d;" horiz-adv-x="675" 
d="M623 1536v-295l-134 -199h-112l82 199h-82v295h246zM299 1536v-295l-133 -199h-113l82 199h-82v295h246z" />
    <glyph glyph-name="quotedblbase" unicode="&#x201e;" horiz-adv-x="675" 
d="M623 295v-295l-134 -199h-112l82 199h-82v295h246zM299 295v-295l-133 -199h-113l82 199h-82v295h246z" />
    <glyph glyph-name="dagger" unicode="&#x2020;" horiz-adv-x="528" 
d="M174 1219h-143v163h143v154h180v-154h144v-163h-144v-252l-32 -340h-115l-33 340v252z" />
    <glyph glyph-name="daggerdbl" unicode="&#x2021;" horiz-adv-x="528" 
d="M174 610v154h-143v164h143l16 145l-16 146h-143v163h143v154h180v-154h144v-163h-144l-16 -146l16 -145h144v-164h-144v-154h-180z" />
    <glyph glyph-name="bullet" unicode="&#x2022;" horiz-adv-x="610" 
d="M193 541l-148 147v262l148 148h225l147 -148v-262l-147 -147h-225z" />
    <glyph glyph-name="ellipsis" unicode="&#x2026;" horiz-adv-x="1032" 
d="M307 283v-283h-254v283h254zM643 283v-283h-254v283h254zM979 283v-283h-254v283h254z" />
    <glyph glyph-name="perthousand" unicode="&#x2030;" horiz-adv-x="1923" 
d="M922 172h147v426h-147v-426zM1536 172h147v426h-147v-426zM725 137v496l137 137h266l138 -137v-496l-138 -137h-266zM1339 137v496l138 137h266l137 -137v-496l-137 -137h-266zM238 938h147v426h-147v-426zM1087 1536l-712 -1536h-156l713 1536h155zM582 1399v-496
l-138 -137h-266l-137 137v496l137 137h266z" />
    <glyph glyph-name="guilsinglleft" unicode="&#x2039;" horiz-adv-x="538" 
d="M494 393h-232l-239 393v41l239 394h232l-250 -414z" />
    <glyph glyph-name="guilsinglright" unicode="&#x203a;" horiz-adv-x="538" 
d="M276 393h-231l250 414l-250 414h231l240 -394v-41z" />
    <glyph glyph-name="fraction" unicode="&#x2044;" horiz-adv-x="196" 
d="M532 1536l-712 -1536h-156l713 1536h155z" />
    <glyph glyph-name="uni20A9" unicode="&#x20a9;" horiz-adv-x="1292" 
d="M8 1061v221h80l-27 254h295l23 -254h135l23 254h256l22 -254h135l23 254h258l-27 -254h80v-221h-104l-113 -1061h-313l-97 940h-6l-96 -940h-330l-112 1061h-105zM442 569h7l45 492h-95zM879 569h8l43 492h-94z" />
    <glyph glyph-name="Euro" unicode="&#x20ac;" horiz-adv-x="1024" 
d="M113 588h-88v164h88v69h-88v164h88v365l186 186h489l187 -186v-314h-328v238h-207v-289h375v-164h-375v-69h375v-164h-375v-326h207v266h328v-342l-187 -186h-489l-186 186v402z" />
    <glyph glyph-name="uni2120" unicode="&#x2120;" horiz-adv-x="1126" 
d="M51 1090h156v-101h98v115l-164 53l-88 90v193l94 96h213l95 -96v-121h-156v94h-96v-110l166 -54l88 -90v-196l-97 -97h-213l-96 97v127zM645 1286v-420h-131v670h215l57 -377h5l59 377h221v-670h-156v420h-4l-73 -420h-115l-74 420h-4z" />
    <glyph glyph-name="trademark" unicode="&#x2122;" horiz-adv-x="1089" 
d="M610 1286v-420h-131v670h215l58 -377h4l57 377h221v-670h-155v420h-5l-71 -420h-117l-72 420h-4zM154 866v531h-123v139h399v-139h-121v-531h-155z" />
    <glyph glyph-name="minus" unicode="&#x2212;" horiz-adv-x="630" 
d="M25 905h581v-188h-581v188z" />
    <glyph glyph-name="approxequal" unicode="&#x2248;" horiz-adv-x="727" 
d="M193 623v-148h-148v201l102 102h187l147 -147h54v147h147v-200l-102 -103h-187l-147 148h-53zM193 991v-147h-148v200l102 103h187l147 -148h54v148h147v-201l-102 -102h-187l-147 147h-53z" />
    <glyph glyph-name="notequal" unicode="&#x2260;" horiz-adv-x="708" 
d="M45 573v189h215l25 98h-240v189h285l57 229h164l-57 -229h170v-189h-215l-25 -98h240v-189h-285l-57 -229h-164l57 229h-170z" />
    <glyph glyph-name="lessequal" unicode="&#x2264;" horiz-adv-x="753" 
d="M33 356h676v-188h-676v188zM709 426l-676 293v184l676 293v-219l-441 -166l441 -166v-219z" />
    <glyph glyph-name="greaterequal" unicode="&#x2265;" horiz-adv-x="753" 
d="M45 168v188h676v-188h-676zM45 426v219l440 166l-440 166v219l676 -293v-184z" />
    <glyph glyph-name="uni24C5" unicode="&#x24c5;" horiz-adv-x="1390" 
d="M635 750h160v282h-160v-282zM635 307h-238v922h486l149 -150v-379l-149 -147h-248v-246zM240 1227v-918l145 -145h621l145 145v918l-145 145h-621zM315 0l-256 256v1024l256 256h760l256 -256v-1024l-256 -256h-760z" />
    <glyph glyph-name="f_i" unicode="&#xfb01;" horiz-adv-x="1079" 
d="M1012 1155v-1155h-320v1155h320zM1012 1520v-244h-320v244h320zM115 0v918h-92v237h92v217l164 164h329v-238h-174v-143h174v-237h-174v-918h-319z" />
    <glyph glyph-name="f_l" unicode="&#xfb02;" horiz-adv-x="1079" 
d="M1012 1536v-1536h-320v1536h320zM115 0v918h-92v237h92v217l164 164h329v-238h-174v-143h174v-237h-174v-918h-319z" />
    <glyph glyph-name="space_uni0326" horiz-adv-x="573" 
d="M401 -43v-199l-106 -123h-82l98 123h-98v199h188z" />
    <glyph glyph-name="space_uni0326.flipped" horiz-adv-x="573" 
d="M172 1225v198l107 123h81l-98 -123h98v-198h-188z" />
    <glyph glyph-name="space_uni0326.ascender" horiz-adv-x="573" 
d="M401 1536v-199l-106 -123h-82l98 123h-98v199h188z" />
    <glyph glyph-name="acute.ascender" horiz-adv-x="759" 
d="M367 1880h188l-162 -287h-188z" />
    <glyph glyph-name="at.uc" horiz-adv-x="1630" 
d="M702 528h152l59 480h-151zM1194 0h-827l-322 322l111 907l307 307h928l194 -195l-104 -872l-152 -152h-446l-25 119l-84 -119h-215l-149 150l75 604l148 148h241l62 -111l27 111h264l-84 -691h135l100 818h-807l-217 -218l-88 -722l215 -216h736z" />
    <glyph glyph-name="acute.uc" horiz-adv-x="759" 
d="M367 1880h188l-162 -287h-188z" />
    <glyph glyph-name="grave.uc" horiz-adv-x="759" 
d="M367 1593l-162 287h188l162 -287h-188z" />
    <glyph glyph-name="hungarumlaut.uc" horiz-adv-x="1026" 
d="M633 1880h188l-162 -287h-188zM367 1880h188l-162 -287h-188z" />
    <glyph glyph-name="circumflex.uc" horiz-adv-x="991" 
d="M389 1862h213l184 -267h-184l-102 162h-8l-103 -162h-184z" />
    <glyph glyph-name="caron.uc" horiz-adv-x="991" 
d="M602 1595h-213l-184 267h184l103 -162h8l102 162h184z" />
    <glyph glyph-name="breve.uc" horiz-adv-x="903" 
d="M205 1855h157v-116h179v116h157v-155l-98 -98h-297l-98 98v155z" />
    <glyph glyph-name="tilde.uc" horiz-adv-x="972" 
d="M352 1731v-125h-147v149l98 98h158l125 -124h35v124h147v-149l-98 -98h-158l-125 125h-35z" />
    <glyph glyph-name="macron.uc" horiz-adv-x="866" 
d="M205 1800h457v-164h-457v164z" />
    <glyph glyph-name="dieresis.uc" horiz-adv-x="849" 
d="M205 1831h180v-229h-180v229zM465 1831h180v-229h-180v229z" />
    <glyph glyph-name="dotaccent.uc" horiz-adv-x="641" 
d="M205 1847h231v-245h-231v245z" />
    <glyph glyph-name="ring.uc" horiz-adv-x="727" 
d="M295 1686h137v118h-137v-118zM522 1815v-140l-80 -80h-157l-80 80v140l80 79h157z" />
    <glyph glyph-name="zero.den" horiz-adv-x="622" 
d="M238 172h147v426h-147v-426zM582 633v-496l-138 -137h-266l-137 137v496l137 137h266z" />
    <glyph glyph-name="one.den" horiz-adv-x="364" 
d="M23 588v137l110 45h162v-770h-197v588h-75z" />
    <glyph glyph-name="two.den" horiz-adv-x="602" 
d="M565 0h-528v256l94 119l246 90v133h-144v-109h-196v144l137 137h254l137 -137v-199l-92 -117l-240 -84v-61h332v-172z" />
    <glyph glyph-name="three.den" horiz-adv-x="616" 
d="M37 264h196v-92h148v141h-172v148h172v137h-148v-88h-196v123l137 137h266l138 -137v-164l-82 -82l82 -82v-168l-138 -137h-266l-137 137v127z" />
    <glyph glyph-name="four.den" horiz-adv-x="663" 
d="M352 309v248h-8l-139 -248h147zM633 145h-84v-145h-197v145h-334v129l295 496h236v-461h84v-164z" />
    <glyph glyph-name="five.den" horiz-adv-x="622" 
d="M43 254h197v-82h145v199h-145v-49h-197v448h520v-172h-323v-145l71 73h154l117 -116v-273l-138 -137h-264l-137 137v117z" />
    <glyph glyph-name="six.den" horiz-adv-x="624" 
d="M238 164h149v170h-149v-170zM584 526h-197v80h-149v-198l71 73h158l117 -116v-228l-138 -137h-268l-137 137v496l137 137h268l138 -137v-107z" />
    <glyph glyph-name="seven.den" horiz-adv-x="544" 
d="M20 598v172h504v-154l-207 -616h-211l211 598h-297z" />
    <glyph glyph-name="eight.den" horiz-adv-x="643" 
d="M408 156v161h-172v-161h172zM408 457v157h-172v-157h172zM467 0h-291l-137 137v168l82 82l-82 82v164l137 137h291l137 -137v-164l-82 -82l82 -82v-168z" />
    <glyph glyph-name="nine.den" horiz-adv-x="624" 
d="M41 246h197v-82h149v205l-72 -74h-157l-117 117v221l137 137h268l138 -137v-496l-138 -137h-268l-137 137v109zM238 451h149v155h-149v-155z" />
    <glyph glyph-name="zero.num" horiz-adv-x="622" 
d="M238 938h147v426h-147v-426zM582 1399v-496l-138 -137h-266l-137 137v496l137 137h266z" />
    <glyph glyph-name="one.num" horiz-adv-x="364" 
d="M23 1354v137l110 45h162v-770h-197v588h-75z" />
    <glyph glyph-name="two.num" horiz-adv-x="602" 
d="M565 766h-528v256l94 119l246 90v133h-144v-109h-196v144l137 137h254l137 -137v-199l-92 -117l-240 -84v-61h332v-172z" />
    <glyph glyph-name="three.num" horiz-adv-x="616" 
d="M37 1030h196v-92h148v141h-172v148h172v137h-148v-88h-196v123l137 137h266l138 -137v-164l-82 -82l82 -82v-168l-138 -137h-266l-137 137v127z" />
    <glyph glyph-name="four.num" horiz-adv-x="663" 
d="M352 1075v248h-8l-139 -248h147zM633 911h-84v-145h-197v145h-334v129l295 496h236v-461h84v-164z" />
    <glyph glyph-name="five.num" horiz-adv-x="622" 
d="M43 1020h197v-82h145v199h-145v-50h-197v449h520v-172h-323v-145l71 73h154l117 -116v-273l-138 -137h-264l-137 137v117z" />
    <glyph glyph-name="six.num" horiz-adv-x="624" 
d="M238 930h149v170h-149v-170zM584 1292h-197v80h-149v-198l71 73h158l117 -117v-227l-138 -137h-268l-137 137v496l137 137h268l138 -137v-107z" />
    <glyph glyph-name="seven.num" horiz-adv-x="544" 
d="M20 1364v172h504v-154l-207 -616h-211l211 598h-297z" />
    <glyph glyph-name="eight.num" horiz-adv-x="643" 
d="M408 922v161h-172v-161h172zM408 1223v157h-172v-157h172zM467 766h-291l-137 137v168l82 82l-82 82v164l137 137h291l137 -137v-164l-82 -82l82 -82v-168z" />
    <glyph glyph-name="nine.num" horiz-adv-x="624" 
d="M41 1012h197v-82h149v205l-72 -74h-157l-117 117v221l137 137h268l138 -137v-496l-138 -137h-268l-137 137v109zM238 1217h149v155h-149v-155z" />
    </font>
</defs>
</svg>
